Gravure CD Audio

Tout ce qui concerne la gravure Audio (CD Audio, MP3, Ogg...).

Gravure CD Audio

Messagepar lion2 » 13 Juil 2015 18:39

Bonjour à tous,
Ayant longuement parcouru ce forum, je viens vers vous après avoir, je pense, épuisé bien des ressources (y compris mes miennes !).
Je n'arrive pas à ripper en mp3 certains CD audio :
- ni avec CDEX,
- ni avec le lecteur Windows Media.
En fait, pour être plus précis, ces logiciels arrivent à ripper, au bout d'un temps infini, et mais les mp3 ne sont pas "écoutables" : çà grésille.
Ca gresille aussi quand j'essaye de les lire sur mon PC.
J'ai essayé également de faire une image avec :
- Daemon Tools,
- ImgBurn.
Je suis quasi certain que ces CD sont protégés, mais nulle trace d'indications sur ces supports.
Mon lecteur-graveur est un ASUS DRW-24B5ST (dont les pilotes sont à jour).
Enfin, ces CD fonctionnent parfaitement lu sur ma platine hi-fi, mon autoradio,...
Merci de votre aide.
lion2
Nouveau Membre
 
Messages: 2
Enregistré le: 13 Juil 2015

Re: Gravure CD Audio

Messagepar aMadEUs » 13 Juil 2015 21:25

Rien de mieux qu'Exact Audio Copy (EAC) pour extraire/convertir ses CD, protégés ou non.

Tutoriel : Conversion MP3 avec EAC et LAME
"L'erreur est humaine, mais une véritable catastrophe nécessite un ordinateur."
Avatar de l’utilisateur
aMadEUs
Membre permanent
Membre permanent
 
Messages: 828
Enregistré le: 06 Sep 2002
Localisation: Somewhere in Belgium

Re: Gravure CD Audio

Messagepar lion2 » 14 Juil 2015 12:14

Bonjour,
J'ai essayé le rip avec EAC : mais sans succès.
Après de nombreuses recherches, j'ai quelques indices à vous soumettre :
- mon lecteur/graveur ASUS DRW-24B5ST est en fait un Liteon iHAS324 C,
- d'autres ont aussi ce problème ; cela semble provenir de certains CD "pressés" par Warner Bros (ce qui est mon cas).
(je ne peux pas vous mettre les liens, en tant que nouvel utilisateur...).

Voici le log d'EAC d'un rip d'une piste :

Exact Audio Copy V1.0 beta 3 from 29. August 2011
EAC extraction logfile from 14. July 2015, 13:11
Neil Young / Tonight's the Night
Used drive : ASUS DRW-24B5ST Adapter: 5 ID: 1
Read mode : Burst
Read offset correction : 6
Overread into Lead-In and Lead-Out : No
Fill up missing offset samples with silence : Yes
Delete leading and trailing silent blocks : No
Null samples used in CRC calculations : Yes
Used interface : Native Win32 interface for Win NT & 2000
Gap handling : Not detected, thus appended to previous track

Used output format : Internal WAV Routines
Sample format : 44.100 Hz; 16 Bit; Stereo

TOC of the extracted CD

Track | Start | Length | Start sector | End sector
---------------------------------------------------------
1 | 0:00.00 | 4:42.50 | 0 | 21199
2 | 4:42.50 | 4:57.22 | 21200 | 43496
3 | 9:39.72 | 2:25.28 | 43497 | 54399
4 | 12:05.25 | 3:26.15 | 54400 | 69864
5 | 15:31.40 | 3:35.62 | 69865 | 86051
6 | 19:07.27 | 3:08.20 | 86052 | 100171
7 | 22:15.47 | 3:07.35 | 100172 | 114231
8 | 25:23.07 | 4:01.45 | 114232 | 132351
9 | 29:24.52 | 2:13.20 | 132352 | 142346
10 | 31:37.72 | 3:54.48 | 142347 | 159944
11 | 35:32.45 | 4:33.67 | 159945 | 180486
12 | 40:06.37 | 4:52.20 | 180487 | 202406
Track 2
Filename C:\(...)\02 Speakin' Out.wav
Suspicious position 0:00:00 - 0:00:01
Timing problem 0:00:05
Timing problem 0:00:47
Timing problem 0:01:29
Timing problem 0:02:11
Timing problem 0:02:53
Timing problem 0:03:35
Timing problem 0:04:17
Peak level 72.2 %
Extraction speed 2.1 X
Copy CRC 7299810B
Cannot be verified as accurate (confidence 124) [1C3C64E3], AccurateRip returned [64966E2C] (AR v2)
Copy finished
No tracks could be verified as accurate
You may have a different pressing from the one(s) in the database
No errors occurred
End of status report
lion2
Nouveau Membre
 
Messages: 2
Enregistré le: 13 Juil 2015

Re: Gravure CD Audio

Messagepar Burnitall » 24 Aoû 2015 22:36

Essaie de ripper le même CD mais sur un autre lecteur.
Avatar de l’utilisateur
Burnitall
Enfoiré
Inconditionnel
 
Messages: 3050
Enregistré le: 19 Juil 2004
Localisation: Strasbourg

Re: Gravure CD Audio

Messagepar CapJack » 11 Nov 2015 21:48

Ce sont des CD protégés. Essaie le petit renard, dont la loi dadvsi m'interdit de citer le nom. ;)

NB : j'ai personnellement rippé plus de 850 CD sur un NAS, avec petit renard + EAC, et jamais eu de problème.
[Recompressez vos mp3 avec WinMP3Shrink] - Le port@il de CapJack
"travailler : vi. (latin populaire *trepaliare, torturer, du bas latin trepalium, instrument de torture)"
La preuve que les hommes sont tous égaux ? La bêtise humaine est uniformément répartie à la surface de la Terre...
Avatar de l’utilisateur
CapJack
Charlot promu Pierrot
Inconditionnel
 
Messages: 3876
Enregistré le: 21 Mar 2004



  • Publicité

Retourner vers Gravure Audio

 


  • Articles en relation
    Réponses
    Vus
    Dernier message

Qui est en ligne

Utilisateurs parcourant ce forum : Aucun utilisateur enregistré et 0 invités

cron